Login or Register

NFO File

For The.Hunger.Games-Mockingjay.Part.2.2015.720p.HD-TS.x264.AC3.HQ.Hive-CM8

[center][img]http://img911.imageshack.us/img911/8131/s9KmMD.jpg[/img]

 
[color=blue][size=4][b]The.Hunger.Games-Mockingjay.Part.2.2015.720p.HD-TS.x264.AC3.HQ.Hive-CM8[/b][/size][/color]

Thx Hive

CM8 Doing It Right The First Time 

Sources:

Video: Italian 1080p Incoming 

Audio: Sweet Line Big Thx to S4NDM4N 
big thx guys

Notes:

Very nice quality video as usual,no movements, no flicker, was cammed a bit too much to the right side, but will do just fine

Encode:

Movie had cpl darker scenes and daylight were already perfect so i had to cut movie in 20 pieces and adjust brightness and contrast
as well as colours as needed. Movie itself is complete just no rolling endcredits.

Audio as usual a nice line from S4NDM4N, just first 3mins have some slight distortions here and theire,the rest is just fine.


got very nice
will do me till retail
enjoy



Video: 1280x720 @bitrate 4000-8000
Audio: English Stereo Line 2.0
Sample: yes included



http://www.imdb.com/title/tt1951266/



General
Complete name                  : The.Hunger.Games-Mockingjay.Part.2.2015.720p.HD-TS.x264.AC3.HQ.Hive-CM8.mkv
Format                         : Matroska
Format version                 : Version 2
File size                      : 3.72 GiB
Duration                       : 2h 5mn
Overall bit rate mode          : Variable
Overall bit rate               : 4 255 Kbps
Encoded date                   : UTC 2015-11-23 21:06:11
Writing application            : mkvmerge v5.6.0 ('Kenya Kane') built on May 27 2012 16:44:04
Writing library                : libebml v1.2.3 + libmatroska v1.3.0

Video
ID                             : 1
Format                         : AVC
Format/Info                    : Advanced Video Codec
Format profile                 : [email protected]
Format settings, CABAC         : Yes
Format settings, ReFrames      : 3 frames
Format settings, GOP           : M=4, N=33
Muxing mode                    : Header stripping
Codec ID                       : V_MPEG4/ISO/AVC
Duration                       : 2h 5mn
Bit rate mode                  : Variable
Bit rate                       : 3 915 Kbps
Maximum bit rate               : 8 000 Kbps
Width                          : 1 280 pixels
Height                         : 720 pixels
Display aspect ratio           : 16:9
Frame rate mode                : Constant
Frame rate                     : 29.970 fps
Standard                       : NTSC
Color space                    : YUV
Chroma subsampling             : 4:2:0
Bit depth                      : 8 bits
Scan type                      : Progressive
Bits/(Pixel*Frame)             : 0.142
Stream size                    : 3.42 GiB (92%)
Language                       : English
Default                        : Yes
Forced                         : No
Color primaries                : BT.709
Transfer characteristics       : BT.709
Matrix coefficients            : BT.709
Color range                    : Limited

Audio
ID                             : 2
Format                         : AC-3
Format/Info                    : Audio Coding 3
Mode extension                 : CM (complete main)
Format settings, Endianness    : Big
Muxing mode                    : Header stripping
Codec ID                       : A_AC3
Duration                       : 2h 5mn
Bit rate mode                  : Constant
Bit rate                       : 256 Kbps
Channel(s)                     : 2 channels
Channel positions              : Front: L R
Sampling rate                  : 48.0 KHz
Bit depth                      : 16 bits
Compression mode               : Lossy
Delay relative to video        : 4ms
Stream size                    : 229 MiB (6%)
Language                       : English
Default                        : Yes
Forced                         : Yes



Screens 

[img]http://img908.imageshack.us/img908/4624/LYhBW0.png[/img]
[img]http://img903.imageshack.us/img903/2761/nOuMpJ.png[/img]
[img]http://img903.imageshack.us/img903/821/xsShde.png[/img]
[img]http://img907.imageshack.us/img907/5901/fs2nrx.png[/img]
[img]http://img911.imageshack.us/img911/849/8nwjYk.png[/img]




Plot

As the war of Panem escalates to the destruction of other districts by the Capitol, Katniss Everdeen, 
the reluctant leader of the rebellion, must bring together an army against President Snow, 
while all she holds dear hangs in the balance.

Cast

Jennifer Lawrence 	... 	Katniss Everdeen
Josh Hutcherson 	... 	Peeta Mellark
Liam Hemsworth 	        ... 	Gale Hawthorne
Woody Harrelson 	... 	Haymitch Abernathy
Donald Sutherland 	... 	President Snow
Philip Seymour Hoffman 	... 	Plutarch Heavensbee
Julianne Moore 	        ... 	President Alma Coin 


[video=https://www.youtube.com/watch?v=n-7K_OjsDCQ]



Greetz

SugarB,iNCOMiNG,Izzy,MenaceIISociety,jiinx,SiMPLE,CherryBomb,bigguy79
ranbailey,ViSiON,UnKnOwN,YanKeeS,COPYxRIGHT,THC,VAiN,ACAB,DRs
LKRG,Kingstoner,SiMPLE,TiTAN,cadance,PLAYNOW
Unevano,BigVik,Rapeseed,SAFC,goldadvance,KaN1vE,Pinnz,Wayne,HiGH
SeeN,jtr,Limey,ICONiK,TED,rkofan,mrtoke09
Mr Hive



LOOKING FOR ANYTHING YOU WANT TO LOOK AND SOUND BETTER

COME FIND US WE DONT BITE 
[email protected][/center]