Login or Register

NFO File

For Afternoon.Delight.2013.720p.BluRay.x264-YIFY

Afternoon.Delight.2013.720p.BluRay.x264-YIFY

Comedy, Drama  |  11 December 2013 (Philippines)
http://www.imdb.com/title/tt2312890/
Ratings: 5.8/10 from 6,680 users   

Rachel is a quick-witted and lovable stay-at-home mom. Frustrated with 
the realities of preschool auctions, a lackluster sex life and career 
that's gone kaput, Rachel visits a strip club to spice up her marriage 
and meets McKenna, a stripper she adopts as her live-in nanny.

Director: Jill Soloway
Writer: Jill Soloway
Stars: Kathryn Hahn, Link Ruiz, Cesar Garcia

Includes English HI subs

Format                                   : MPEG-4
Format profile                           : Base Media
Codec ID                                 : isom
File size                                : 758 MiB
Duration                                 : 1h 37mn
Overall bit rate mode                    : Variable
Overall bit rate                         : 1 083 Kbps
Encoded date                             : UTC 2014-02-06 22:29:01
Tagged date                              : UTC 2014-02-06 22:29:01

Video
ID                                       : 1
Format                                   : AVC
Format/Info                              : Advanced Video Codec
Format profile                           : [email protected]
Format settings, CABAC                   : Yes
Format settings, ReFrames                : 4 frames
Codec ID                                 : avc1
Codec ID/Info                            : Advanced Video Coding
Duration                                 : 1h 37mn
Bit rate                                 : 985 Kbps
Maximum bit rate                         : 7 485 Kbps
Width                                    : 1 280 pixels
Height                                   : 690 pixels
Display aspect ratio                     : 1.85:1
Frame rate mode                          : Constant
Frame rate                               : 23.976 fps
Color space                              : YUV
Chroma subsampling                       : 4:2:0
Bit depth                                : 8 bits
Scan type                                : Progressive
Bits/(Pixel*Frame)                       : 0.047
Stream size                              : 689 MiB (91%)
Writing library                          : x264 core 135 r2 f0c1c53
Encoded date                             : UTC 2014-02-06 22:29:01
Tagged date                              : UTC 2014-02-06 22:29:19
Color primaries                          : BT.709
Matrix coefficients                      : BT.709

Audio
ID                                       : 2
Format                                   : AAC
Format/Info                              : Advanced Audio Codec
Format profile                           : LC
Codec ID                                 : 40
Duration                                 : 1h 37mn
Bit rate mode                            : Variable
Bit rate                                 : 93.9 Kbps
Maximum bit rate                         : 103 Kbps
Channel(s)                               : 2 channels
Channel positions                        : Front: L R
Sampling rate                            : 48.0 KHz
Compression mode                         : Lossy
Stream size                              : 65.7 MiB (9%)
Language                                 : English
Encoded date                             : UTC 2014-02-06 22:29:16
Tagged date                              : UTC 2014-02-06 22:29:19