Login or Register

NFO File

For Bound.To.Vengeance.2015.BRRip.XviD.AC3-RARBG

[URL]http://www.imdb.com/title/tt1230213/[/URL]
[URL=http://imagecurl.com/viewer.php?file=50554856839349311810.png][IMG]http://imagecurl.com/images/50554856839349311810_thumb.png[/IMG][/URL]
[URL=http://imagecurl.com/viewer.php?file=26994584685301108507.png][IMG]http://imagecurl.com/images/26994584685301108507_thumb.png[/IMG][/URL]
[URL=http://imagecurl.com/viewer.php?file=88210386493009426063.png][IMG]http://imagecurl.com/images/88210386493009426063_thumb.png[/IMG][/URL]
[URL=http://imagecurl.com/viewer.php?file=60849000679931322677.png][IMG]http://imagecurl.com/images/60849000679931322677_thumb.png[/IMG][/URL]
[URL=http://imagecurl.com/viewer.php?file=42772670860606138193.png][IMG]http://imagecurl.com/images/42772670860606138193_thumb.png[/IMG][/URL]


[mediainfo]
Video
ID                                       : 0
Format                                   : MPEG-4 Visual
Format profile                           : [email protected]
Format settings, BVOP                    : No
Format settings, QPel                    : No
Format settings, GMC                     : No warppoints
Format settings, Matrix                  : Default (H.263)
Codec ID                                 : XVID
Codec ID/Hint                            : XviD
Duration                                 : 1h 19mn
Bit rate                                 : 1 084 Kbps
Width                                    : 720 pixels
Height                                   : 302 pixels
Display aspect ratio                     : 2.40:1
Frame rate                               : 23.976 fps
Color space                              : YUV
Chroma subsampling                       : 4:2:0
Bit depth                                : 8 bits
Scan type                                : Progressive
Compression mode                         : Lossy
Bits/(Pixel*Frame)                       : 0.208
Stream size                              : 617 MiB (70%)
Writing library                          : Lavc56.60.100

Audio
ID                                       : 1
Format                                   : AC-3
Format/Info                              : Audio Coding 3
Mode extension                           : CM (complete main)
Format settings, Endianness              : Big
Codec ID                                 : 2000
Duration                                 : 1h 19mn
Bit rate mode                            : Constant
Bit rate                                 : 448 Kbps
Channel(s)                               : 6 channels
Channel positions                        : Front: L C R, Side: L R, LFE
Sampling rate                            : 48.0 KHz
Compression mode                         : Lossy
Stream size                              : 255 MiB (29%)
Alignment                                : Aligned on interleaves
Interleave, duration                     : 42 ms (1.00 video frame)
Interleave, preload duration             : 512 ms



[/mediainfo]