Login or Register

NFO File

For Horror.2015.720p.WEB-DL.DD5.1.H264-RARBG

http://www.imdb.com/title/tt3526286/

General           : Horror.2015.720p.WEB-DL.DD5.1.H264-RARBG.mkv

Format            : Matroska at 4 336 Kbps
Length            : 2.96 GiB for 1h 37mn 53s 120ms

Video #0          : AVC at 3 865 Kbps
Aspect            : 1280 x 528 (2.424) at 23.976 fps

Audio #0          : AC-3 at 384 Kbps
Infos             : 6 channels, 48.0 KHz

Language          : English
Subtitles         : English (muxed in & optional)
                    English (srt file)

[URL=http://imagecurl.com/viewer.php?file=58796179060613594061.png][IMG]http://imagecurl.com/images/58796179060613594061_thumb.png[/IMG][/URL]
[URL=http://imagecurl.com/viewer.php?file=21661896523623623031.png][IMG]http://imagecurl.com/images/21661896523623623031_thumb.png[/IMG][/URL]
[URL=http://imagecurl.com/viewer.php?file=59489883480883889046.png][IMG]http://imagecurl.com/images/59489883480883889046_thumb.png[/IMG][/URL]
[URL=http://imagecurl.com/viewer.php?file=33042331918743567754.png][IMG]http://imagecurl.com/images/33042331918743567754_thumb.png[/IMG][/URL]
[URL=http://imagecurl.com/viewer.php?file=87356571944792528162.png][IMG]http://imagecurl.com/images/87356571944792528162_thumb.png[/IMG][/URL]
[URL=http://imagecurl.com/viewer.php?file=06525668147748463740.png][IMG]http://imagecurl.com/images/06525668147748463740_thumb.png[/IMG][/URL]



[mediainfo]
Video
ID                                       : 1
Format                                   : AVC
Format/Info                              : Advanced Video Codec
Format profile                           : [email protected]
Format settings, CABAC                   : No
Format settings, ReFrames                : 2 frames
Codec ID                                 : V_MPEG4/ISO/AVC
Duration                                 : 1h 37mn
Bit rate                                 : 3 865 Kbps
Width                                    : 1 280 pixels
Height                                   : 528 pixels
Display aspect ratio                     : 2.40:1
Frame rate mode                          : Constant
Frame rate                               : 23.976 fps
Color space                              : YUV
Chroma subsampling                       : 4:2:0
Bit depth                                : 8 bits
Scan type                                : Progressive
Bits/(Pixel*Frame)                       : 0.239
Stream size                              : 2.64 GiB (89%)
Title                                    : Horror.2015.720p.WEB-DL.DD5.1.H264-RARBG
Language                                 : English
Default                                  : Yes
Forced                                   : No
Color range                              : Limited
Color primaries                          : BT.709
Transfer characteristics                 : BT.709
Matrix coefficients                      : BT.709

Audio
ID                                       : 2
Format                                   : AC-3
Format/Info                              : Audio Coding 3
Mode extension                           : CM (complete main)
Format settings, Endianness              : Big
Codec ID                                 : A_AC3
Duration                                 : 1h 37mn
Bit rate mode                            : Constant
Bit rate                                 : 384 Kbps
Channel(s)                               : 6 channels
Channel positions                        : Front: L C R, Side: L R, LFE
Sampling rate                            : 48.0 KHz
Compression mode                         : Lossy
Stream size                              : 269 MiB (9%)
Title                                    : Horror.2015.720p.WEB-DL.DD5.1.H264-RARBG
Language                                 : English
Default                                  : Yes
Forced                                   : No

Text
ID                                       : 3
Format                                   : UTF-8
Codec ID                                 : S_TEXT/UTF8
Codec ID/Info                            : UTF-8 Plain Text
Language                                 : English
Default                                  : Yes
Forced                                   : No

Menu
00:00:00.000                             : en:1
00:10:29.000                             : en:2
00:19:41.000                             : en:3
00:30:17.000                             : en:4
00:40:12.000                             : en:5
00:52:32.000                             : en:6
01:01:01.000                             : en:7
01:10:38.000                             : en:8
01:20:48.000                             : en:9
01:29:59.000                             : en:10



[/mediainfo]