Login or Register

NFO File

For Patriot.2015.WEBRip.XviD.MP3-RARBG

[URL=http://imagecurl.com/viewer.php?file=00244112054245496003.png][IMG]http://imagecurl.com/images/00244112054245496003_thumb.png[/IMG][/URL]
[URL=http://imagecurl.com/viewer.php?file=08659827472564461846.png][IMG]http://imagecurl.com/images/08659827472564461846_thumb.png[/IMG][/URL]
[URL=http://imagecurl.com/viewer.php?file=66078808647774360887.png][IMG]http://imagecurl.com/images/66078808647774360887_thumb.png[/IMG][/URL]
[URL=http://imagecurl.com/viewer.php?file=05669900824756454244.png][IMG]http://imagecurl.com/images/05669900824756454244_thumb.png[/IMG][/URL]
[URL=http://imagecurl.com/viewer.php?file=22196149653093517240.png][IMG]http://imagecurl.com/images/22196149653093517240_thumb.png[/IMG][/URL]
[URL=http://imagecurl.com/viewer.php?file=33250613894546614415.png][IMG]http://imagecurl.com/images/33250613894546614415_thumb.png[/IMG][/URL]



[mediainfo]
Video
ID                                       : 0
Format                                   : MPEG-4 Visual
Format profile                           : [email protected]
Format settings, BVOP                    : No
Format settings, QPel                    : No
Format settings, GMC                     : No warppoints
Format settings, Matrix                  : Default (H.263)
Codec ID                                 : XVID
Codec ID/Hint                            : XviD
Duration                                 : 58mn 29s
Bit rate                                 : 1 108 Kbps
Width                                    : 720 pixels
Height                                   : 400 pixels
Display aspect ratio                     : 16:9
Frame rate                               : 24.000 fps
Color space                              : YUV
Chroma subsampling                       : 4:2:0
Bit depth                                : 8 bits
Scan type                                : Progressive
Compression mode                         : Lossy
Bits/(Pixel*Frame)                       : 0.160
Stream size                              : 463 MiB (84%)
Writing library                          : Lavc56.58.100

Audio
ID                                       : 1
Format                                   : MPEG Audio
Format version                           : Version 1
Format profile                           : Layer 3
Mode                                     : Joint stereo
Codec ID                                 : 55
Codec ID/Hint                            : MP3
Duration                                 : 58mn 29s
Bit rate mode                            : Constant
Bit rate                                 : 192 Kbps
Channel(s)                               : 2 channels
Sampling rate                            : 48.0 KHz
Compression mode                         : Lossy
Stream size                              : 80.3 MiB (15%)
Alignment                                : Aligned on interleaves
Interleave, duration                     : 24 ms (0.58 video frame)
Interleave, preload duration             : 504 ms
Writing library                          : LAME3.99.5



[/mediainfo]