Login or Register

NFO File

For 007.Spectre.(2015).HDCAM.ENG-AVC.264-AAC2CH.Audio KayOs )

007 Spectre (2015) HDCAM ENG- AVC.264 -AAC2CH Audio_KayOs_)


Genres: Action, Adventure, Thriller, Crime 
Release date: 06 November 2015
Language: English
IMDB-Link: http://www.imdb.com/title/tt2379713/
Plot:
A cryptic message from Bond's past sends him on a trail 
to uncover a sinister organization. While M battles political 
forces to keep the secret service alive, Bond peels back the 
layers of deceit to reveal the terrible truth behind SPECTRE.

Info:
:* Blurb * ABB = Anamorphic Black Bars

14 hour Encode using Russian Video cropped but better aspect ratio

& ENG from Clear Audio - sync out a tad in places

easily fixed in playa remember it`s a cam polished as much as possible_)

(_for ma eyes & to share with KAT EnJoY & SEED _)

Full 720x480 ABB H.264-MPEG-4 version cooked _)

A Thumbs up & Vote is very appreciated thanks_)

& please Leave a comment folks for the hours spent _)

Props to :source "*###* _)


Movie Caps:
I take the time _) caps real click to view full size
here on KAT no off site confirm:_)


Movie Info:
INFO # General

Format : MPEG-4
Format profile : Base Media
Codec ID : isom
File size : 2.05 GiB
Duration : 2h 19mn
Overall bit rate mode : Variable
Overall bit rate : 2 105 Kbps
Codirector : codirector
Production studio : studio
ContentType : Unknown Type
Writing application : Lavf55.33.100

Video
ID : 1
Format : AVC
Format/Info : Advanced Video Codec
Format profile : [email protected]
Format settings, CABAC : No
Format settings, ReFrames : 1 frame
Format settings, GOP : M=1, N=10
Codec ID : avc1
Codec ID/Info : Advanced Video Coding
Duration : 2h 19mn
Bit rate mode : Variable
Bit rate : 1 996 Kbps
Maximum bit rate : 3 000 Kbps
Width : 720 pixels
Height : 480 pixels
Display aspect ratio : 3:2
Frame rate mode : Variable
Frame rate : 29.970 fps
Minimum frame rate : 29.940 fps
Maximum frame rate : 98.361 fps
Standard : NTSC
Color space : YUV
Chroma subsampling : 4:2:0
Bit depth : 8 bits
Scan type : Progressive
Bits/(Pixel*Frame) : 0.193
Stream size : 1.95 GiB (95%)

Audio
ID : 2
Format : AAC
Format/Info : Advanced Audio Codec
Format profile : LC
Codec ID : 40
Duration : 2h 19mn
Bit rate mode : Constant
Bit rate : 103 Kbps
Channel(s) : 2 channels
Channel positions : Front: L R
Sampling rate : 44.1 KHz
Compression mode : Lossy
Stream size : 103 MiB (5%)

Screens:
https://yuq.me/users/43/820/R1z3fNSkDp.png
https://yuq.me/users/43/820/6bqOJnXHcz.png
https://yuq.me/users/43/820/NpJSlAcMuw.png
https://yuq.me/users/43/820/pC3Ia56WQf.png
https://yuq.me/users/43/820/G0tmeN3q5S.png
https://yuq.me/users/43/820/VgM7KEsTqx.png