Login or Register

NFO File

For The Best of Roger Rabbit 1996 Dvdrip Xvid-OlFa

The Best of Roger Rabbit 1996 Dvdrip Xvid-OlFa

Video  |  Animation, Comedy, Family  |  28 February 1996 (USA)
http://www.imdb.com/title/tt0268988/
Ratings: 7.2/10 from 244 users  

This is the three Roger Rabbit cartoons: 'Tummy Trouble', 'Roller Coaster Rabbit' and 'Trail Mix-Up'.

Directors: Barry Cook, Rob Minkoff
Writer: Gary K. Wolf (characters)
Stars: Charles Fleischer, Kathleen Turner, April Winchell, Corey Burton

Video: 720x400 Xvid
Audio: English MP3 stereo
Subs: none for these shorts

All three shorts in one AVI, short start times:
Tummy Trouble: 0:00
Roller Coaster Rabbit: 7:30
Trail Mix-Up: 15:00

Source: Who Framed Roger Rabbit R2 retail PAL DVD (in the Bonus Material)

Format                                   : AVI
Format/Info                              : Audio Video Interleave
File size                                : 544 MiB
Duration                                 : 23mn 30s
Overall bit rate                         : 3 238 Kbps
Writing application                      : VirtualDubMod 1.5.4.1 (build 2178/release)
Writing library                          : VirtualDubMod build 2178/release

Video
ID                                       : 0
Format                                   : MPEG-4 Visual
Format profile                           : [email protected]
Format settings, BVOP                    : No
Format settings, QPel                    : No
Format settings, GMC                     : No warppoints
Format settings, Matrix                  : Default (H.263)
Codec ID                                 : XVID
Codec ID/Hint                            : XviD
Duration                                 : 23mn 30s
Bit rate                                 : 3 103 Kbps
Width                                    : 720 pixels
Height                                   : 400 pixels
Display aspect ratio                     : 16:9
Frame rate                               : 25.000 fps
Color space                              : YUV
Chroma subsampling                       : 4:2:0
Bit depth                                : 8 bits
Scan type                                : Progressive
Compression mode                         : Lossy
Bits/(Pixel*Frame)                       : 0.431
Stream size                              : 522 MiB (96%)
Writing library                          : XviD 1.2.1 (UTC 2008-12-04)

Audio
ID                                       : 1
Format                                   : MPEG Audio
Format version                           : Version 1
Format profile                           : Layer 3
Mode                                     : Joint stereo
Mode extension                           : MS Stereo
Codec ID                                 : 55
Codec ID/Hint                            : MP3
Duration                                 : 23mn 30s
Bit rate mode                            : Constant
Bit rate                                 : 128 Kbps
Channel(s)                               : 2 channels
Sampling rate                            : 48.0 KHz
Compression mode                         : Lossy
Stream size                              : 21.5 MiB (4%)
Alignment                                : Aligned on interleaves
Interleave, duration                     : 80 ms (2.00 video frames)
Interleave, preload duration             : 504 ms
Writing library                          : LAME3.98r