Login or Register

NFO File

For Edge.2015.WEBRip.XviD.MP3-RARBG

[URL=http://imagecurl.com/viewer.php?file=88659323642698842505.png][IMG]http://imagecurl.com/images/88659323642698842505_thumb.png[/IMG][/URL]
[URL=http://imagecurl.com/viewer.php?file=59148387051840757900.png][IMG]http://imagecurl.com/images/59148387051840757900_thumb.png[/IMG][/URL]
[URL=http://imagecurl.com/viewer.php?file=53825847610949641567.png][IMG]http://imagecurl.com/images/53825847610949641567_thumb.png[/IMG][/URL]
[URL=http://imagecurl.com/viewer.php?file=68400448640308584836.png][IMG]http://imagecurl.com/images/68400448640308584836_thumb.png[/IMG][/URL]
[URL=http://imagecurl.com/viewer.php?file=39103274508706383984.png][IMG]http://imagecurl.com/images/39103274508706383984_thumb.png[/IMG][/URL]
[URL=http://imagecurl.com/viewer.php?file=68936395926463684175.png][IMG]http://imagecurl.com/images/68936395926463684175_thumb.png[/IMG][/URL]



[mediainfo]
Video
ID                                       : 0
Format                                   : MPEG-4 Visual
Format profile                           : [email protected]
Format settings, BVOP                    : No
Format settings, QPel                    : No
Format settings, GMC                     : No warppoints
Format settings, Matrix                  : Default (H.263)
Codec ID                                 : XVID
Codec ID/Hint                            : XviD
Duration                                 : 1h 2mn
Bit rate                                 : 1 521 Kbps
Width                                    : 720 pixels
Height                                   : 400 pixels
Display aspect ratio                     : 16:9
Frame rate                               : 24.000 fps
Color space                              : YUV
Chroma subsampling                       : 4:2:0
Bit depth                                : 8 bits
Scan type                                : Progressive
Compression mode                         : Lossy
Bits/(Pixel*Frame)                       : 0.220
Stream size                              : 676 MiB (88%)
Writing library                          : Lavc56.58.100

Audio
ID                                       : 1
Format                                   : MPEG Audio
Format version                           : Version 1
Format profile                           : Layer 3
Mode                                     : Joint stereo
Mode extension                           : MS Stereo
Codec ID                                 : 55
Codec ID/Hint                            : MP3
Duration                                 : 1h 2mn
Bit rate mode                            : Constant
Bit rate                                 : 192 Kbps
Channel(s)                               : 2 channels
Sampling rate                            : 48.0 KHz
Compression mode                         : Lossy
Stream size                              : 85.3 MiB (11%)
Alignment                                : Aligned on interleaves
Interleave, duration                     : 24 ms (0.58 video frame)
Interleave, preload duration             : 504 ms
Writing library                          : LAME3.99.5



[/mediainfo]