Login or Register

NFO File

For A Haunting in Salem 2011 1080p DTS 3D Half-SBS PSIV

Title                                    : A Haunting in Salem (2011)
Link                                     : http://www.imdb.com/title/tt1912981
Video                                    : 3D Half-SBS x264 1080p
Audio                                    : English DTS 1.5 Mbps 5.1ch

General
Unique ID                                : 198430503186267161780510055661264602947 (0x95485325DF25FB0DB2C75A462BAA8743)
Complete name                            : A.Haunting.in.Salem.2011.1080p.DTS.3D.Half-SBS.PSIV.mkv
Format                                   : Matroska
Format version                           : Version 4 / Version 2
File size                                : 3.56 GiB
Duration                                 : 1h 25mn
Overall bit rate                         : 5 946 Kbps
Movie name                               : A Haunting in Salem (2011)
Encoded by                               : PSIV
Encoded date                             : UTC 2015-10-26 01:00:00
Writing application                      : mkvmerge v8.5.1 ('Where you lead I will follow') 64bit
Writing library                          : x264 0.148.2638 7599210 / (libswscale 4.0.100) / (libavformat 57.4.100) / (ffmpegsource 2.22.0.0) / built by Komisar on Oct 16 2015, gcc: 4.8.4 (multilib.generic.Komisar) / x264 configuration: --bit-depth=8 --chroma-format=all / libx264 configuration: --bit-depth=8 --chroma-format=all / x264 license: GPL version 2 or later / libswscale/libavformat/ffmpegsource license: GPL version 2 or later /  (64bit)
Original source form                     : Blu-ray 3D
TITLE                                    : A Haunting in Salem
AUTHOR                                   : BD3D2MK3D 0.75
ENCODER_SETTINGS                         : --crf 20 --preset slow --tune film --level 4.1 --vbv-bufsize 78125 --vbv-maxrate 62500 --sar 1:1 --frame-packing 3
DATE_ENCODED                             : 2015-10-25
DURATION                                 : 01:25:50.027000000
NUMBER_OF_FRAMES                         : 482815
NUMBER_OF_BYTES                          : 971423848
_STATISTICS_WRITING_APP                  : mkvmerge v8.5.1 ('Where you lead I will follow') 64bit
_STATISTICS_WRITING_DATE_UTC             : 2015-10-26 01:00:00
_STATISTICS_TAGS                         : BPS DURATION NUMBER_OF_FRAMES NUMBER_OF_BYTES

Video
ID                                       : 1
Format                                   : AVC
Format/Info                              : Advanced Video Codec
Format profile                           : [email protected]
MultiView_Count                          : 2
MultiView_Layout                         : Side by Side (left eye first)
Format settings, CABAC                   : Yes
Format settings, ReFrames                : 4 frames
Codec ID                                 : V_MPEG4/ISO/AVC
Duration                                 : 1h 25mn
Bit rate                                 : 4 319 Kbps
Width                                    : 1 920 pixels
Height                                   : 1 080 pixels
Display aspect ratio                     : 16:9
Frame rate mode                          : Constant
Frame rate                               : 23.976 fps
Color space                              : YUV
Chroma subsampling                       : 4:2:0
Bit depth                                : 8 bits
Scan type                                : Progressive
Bits/(Pixel*Frame)                       : 0.087
Stream size                              : 2.59 GiB (73%)
Title                                    : A Haunting in Salem (2011)
Writing library                          : x264 core 148 r2638 7599210
Encoding settings                        : cabac=1 / ref=4 / deblock=1:-1:-1 / analyse=0x3:0x113 / me=umh / subme=8 / psy=1 / psy_rd=1.00:0.15 / mixed_ref=1 / me_range=16 / chroma_me=1 / trellis=1 / 8x8dct=1 / cqm=0 / deadzone=21,11 / fast_pskip=1 / chroma_qp_offset=-3 / threads=12 / lookahead_threads=2 / sliced_threads=0 / nr=0 / decimate=1 / interlaced=0 / bluray_compat=0 / constrained_intra=0 / bframes=3 / b_pyramid=2 / b_adapt=2 / b_bias=0 / direct=3 / weightb=1 / open_gop=0 / weightp=2 / keyint=250 / keyint_min=23 / scenecut=40 / intra_refresh=0 / rc_lookahead=50 / rc=crf / mbtree=1 / crf=20.0 / qcomp=0.60 / qpmin=0 / qpmax=69 / qpstep=4 / vbv_maxrate=62500 / vbv_bufsize=78125 / crf_max=0.0 / nal_hrd=none / filler=0 / frame-packing=3 / ip_ratio=1.40 / aq=1:1.00
Language                                 : English
Default                                  : Yes
Forced                                   : No

Audio
ID                                       : 2
Format                                   : DTS
Format/Info                              : Digital Theater Systems
Mode                                     : 16
Format settings, Endianness              : Big
Codec ID                                 : A_DTS
Duration                                 : 1h 25mn
Bit rate mode                            : Constant
Bit rate                                 : 1 509 Kbps
Channel(s)                               : 6 channels
Channel positions                        : Front: L C R, Side: L R, LFE
Sampling rate                            : 48.0 KHz
Bit depth                                : 24 bits
Compression mode                         : Lossy
Stream size                              : 926 MiB (25%)
Title                                    : English (DTS 5.1 48KHz)
Language                                 : English
Default                                  : Yes
Forced                                   : No

Menu
00:00:00.000                             : :1
00:05:20.445                             : :2
00:13:50.454                             : :3
00:21:27.494                             : :4
00:25:46.211                             : :5
00:32:57.934                             : :6
00:44:11.648                             : :7
00:52:57.173                             : :8
00:59:03.623                             : :9
01:04:22.108                             : :10
01:10:56.919                             : :11
01:17:06.371                             : :12