Login or Register

NFO File

For xxx.NCR-REUP

                                   XXX  4U by

                                    ^......^
                                   /        \
                                  |          |
                                   <(+)><(.)>
                                  |  ~ || ~  |
                                   \   oo   /
                                    |::__::|
                                     \::::/
                                      ::::
                                       ::

                               ...NihilCumsteR...

________________________________________________________________________________

title: Leche69 14.02.16 Nikita Ways - Mi primer anal - After anal para la gogo [1080p] 

starring: Nikita Ways

description:
Spanish:
De buena ma±ana y en un after Max CortΘs se dispone a ligar con alguna golfa, y
lo consigue con una de las gog≤s que ademßs resulta ser la actriz porno Nikita
Ways. Se la lleva a su chalet y menuda matraca le pega con enculadas a saco. Lo
mßs probable es que esta joven aun estuviera bajo los efectos del alcohol, y Max
saca buen provecho de ello dandole por el culo!

English:
Good morning and an after Max Cortes prepares to flirt with some slut, and get
one of the go-go dancers who also happens to be the porn star Nikita Ways. He
takes her to his house and has a fantastic petite fucked slack to sack. Chances
are that this girl was still under the influence of alcohol, and Max takes good
advantage of it giving up the ass!
__________________________________MEDIA INFO____________________________________

General:
Complete name                            : Leche69 14.02.16 Nikita Ways - Mi primer anal - After anal para la gogo [1080p].mp4
Format                                   : MPEG-4
Format profile                           : QuickTime
Codec ID                                 : qt  
File size                                : 2.34 GiB
Duration                                 : 34mn 39s
Overall bit rate mode                    : Variable
Overall bit rate                         : 9 659 Kbps
Encoded date                             : UTC 2010-12-20 20:58:11
Tagged date                              : UTC 2010-12-20 20:59:29
Writing library                          : Apple QuickTime

Video:
ID                                       : 1
Format                                   : AVC
Format/Info                              : Advanced Video Codec
Format profile                           : [email protected]
Format settings, CABAC                   : No
Format settings, ReFrames                : 2 frames
Format settings, GOP                     : M=2, N=50
Codec ID                                 : avc1
Codec ID/Info                            : Advanced Video Coding
Duration                                 : 34mn 39s
Bit rate mode                            : Variable
Bit rate                                 : 9 067 Kbps
Maximum bit rate                         : 10.2 Mbps
Width                                    : 1 920 pixels
Height                                   : 1 080 pixels
Display aspect ratio                     : 16:9
Frame rate mode                          : Constant
Frame rate                               : 25.000 fps
Color space                              : YUV
Chroma subsampling                       : 4:2:0
Bit depth                                : 8 bits
Scan type                                : Progressive
Bits/(Pixel*Frame)                       : 0.175
Stream size                              : 2.20 GiB (94%)
Language                                 : English
Encoded date                             : UTC 2010-12-20 20:56:26
Tagged date                              : UTC 2010-12-20 20:59:29
Color primaries                          : BT.709
Transfer characteristics                 : BT.709
Matrix coefficients                      : BT.709

Audio:
ID                                       : 2
Format                                   : AAC
Format/Info                              : Advanced Audio Codec
Format profile                           : LC
Codec ID                                 : 40
Duration                                 : 34mn 39s
Source duration                          : 34mn 39s
Bit rate mode                            : Constant
Bit rate                                 : 104 Kbps
Nominal bit rate                         : 128 Kbps
Channel(s)                               : 2 channels
Channel positions                        : Front: L R
Sampling rate                            : 44.1 KHz
Compression mode                         : Lossy
Stream size                              : 25.8 MiB (1%)
Source stream size                       : 25.8 MiB (1%)
Language                                 : English
Encoded date                             : UTC 2010-12-20 20:56:26
Tagged date                              : UTC 2010-12-20 20:59:29
Other:
ID                                       : 3
Type                                     : Time code
Format                                   : QuickTime TC
Duration                                 : 34mn 39s
Time code of first frame                 : 04:16:52:14
Time code settings                       : Striped
Language                                 : English
Encoded date                             : UTC 2010-12-20 20:56:26
Tagged date                              : UTC 2010-12-20 20:59:29