Login or Register

NFO File

For Hand.To.Mouth.7.3rd.Degree.Sep.2008.[60fps].[resize].[720p].XXX.NCR

01 001010101010 10101010101010101 01010100110101001 101 1100101010 0101 110101 1
        011101010010110 10111 10 1100 0101111 01100100 1101010 101010001  0
                    10110 0101001011 0101010110 001101 01 110101 011 0111
                               10101110101010 01
                                     1010
 XXX            XXX                ^...1..^  
       XXX    XXX                 /        \  
XXX                 XXX          |    4U    |
                      XXX      xx-<(+)--(.)>-by
        XXX      XXX      XXX   x|  ~ || ~  |
   XXX                            \   oo   /
                     XXX           |::__::|
       XXX XXX   XXX                \::::/
XXX                            ____/ :::: \____ 
     XXX                     / Nihil  :: Cumster\
                            /                    \
                            \   /            \   /            ~
                            |  -     Made     -  |
                            |   \_.__/  \__._/   |         ~      
                            |   / ____at____ \   |
                            | -||  KL3V3R16  ||- |         ~  ~
____________________________|  ||____________||  |________~_~___________________
                            |  |_            _|  |          ~
                             \  || Born  in ||  /        ~  ~
                             ||||            ||||       ~ ~______
                          [][\\\\[cyberspace]////][]  ===*_____ /|
                          [][][][][][][][][][][][][]    |__NCR__|/
                          [][][][][][][][][][][][][]
                          [][][][][][][][][][][][][]
                          [][][][][][][][][][][][][]
                          [][][]__[][][]__[][][]__[]
                          \________________________/

________________________________________________________________________________

title: Hand To Mouth 7 (3rd Degree, Sep 2008) [60fps] [resize] [720p] 

starring: Ann Marie Rios, Bailey Brooks, Carolyn Reese, Eden Adams, Gianna Lynn, Jenner, Julia Ann, Kenzi Marie, Kristina Rose, Lee Stone, Lola, Marie Luv, Nikki Sexx, Rachel Roxxx, Shyla Stylez

description:
Shot in HD. 100 perc. POV blowjobs and hand jobs! Youll go crazy over the cock
hungry collection of cum sucking cuties assembled for HAND TO MOUTH 7. These
splooge-sucking sluts work the wiener in a way that would leave Oscar Meyer
smiling. From Balls to Tip, the entire c*ck gets the attention it deserves in
this critically acclaimed series!

_________________________________CONTENT LIST___________________________________

Hand To Mouth 7 (3rd Degree, Sep 2008) [60fps] [resize] [720p].mp4|5784MB

__________________________________MEDIA INFO____________________________________

General:
Complete name                            : Hand To Mouth 7 (3rd Degree, Sep 2008) [60fps] [resize] [720p].mp4
Format                                   : MPEG-4
Format profile                           : JVT
Codec ID                                 : avc1
File size                                : 5.65 GiB
Duration                                 : 2h 49mn
Overall bit rate mode                    : Variable
Overall bit rate                         : 4 768 Kbps
Encoded date                             : UTC 2015-11-02 13:21:12
Tagged date                              : UTC 2015-11-02 13:21:12
Writing application                      : Hybrid 2014.12.05.1

Video:
ID                                       : 1
Format                                   : AVC
Format/Info                              : Advanced Video Codec
Format profile                           : [email protected]
Format settings, CABAC                   : Yes
Format settings, ReFrames                : 6 frames
Codec ID                                 : avc1
Codec ID/Info                            : Advanced Video Coding
Duration                                 : 2h 49mn
Bit rate                                 : 4 700 Kbps
Maximum bit rate                         : 10.5 Mbps
Width                                    : 1 280 pixels
Height                                   : 720 pixels
Display aspect ratio                     : 16:9
Frame rate mode                          : Constant
Frame rate                               : 59.940 fps
Color space                              : YUV
Chroma subsampling                       : 4:2:0
Bit depth                                : 8 bits
Scan type                                : Progressive
Bits/(Pixel*Frame)                       : 0.085
Stream size                              : 5.57 GiB (99%)
Writing library                          : x264 core 142 r2491 24e4fed
Encoding settings                        : opencl=1 / cabac=1 / ref=6 / deblock=1:-2:-2 / analyse=0x3:0x133 / me=umh / subme=10 / psy=1 / psy_rd=1.00:0.15 / mixed_ref=1 / me_range=24 / chroma_me=1 / trellis=2 / 8x8dct=1 / cqm=0 / deadzone=6,6 / fast_pskip=0 / chroma_qp_offset=-3 / threads=12 / lookahead_threads=1 / sliced_threads=0 / nr=0 / decimate=0 / interlaced=0 / bluray_compat=0 / constrained_intra=0 / bframes=5 / b_pyramid=2 / b_adapt=2 / b_bias=0 / direct=3 / weightb=1 / open_gop=0 / weightp=2 / keyint=250 / keyint_min=25 / scenecut=40 / intra_refresh=0 / rc_lookahead=60 / rc=crf / mbtree=1 / crf=18.0 / qcomp=0.60 / qpmin=0 / qpmax=69 / qpstep=4 / vbv_maxrate=300000 / vbv_bufsize=300000 / crf_max=0.0 / nal_hrd=none / filler=0 / ip_ratio=1.40 / aq=2:0.50
Encoded date                             : UTC 2015-11-02 13:21:12
Tagged date                              : UTC 2015-11-02 13:23:36
Matrix coefficients                      : BT.709

Audio:
ID                                       : 2
Format                                   : AAC
Format/Info                              : Advanced Audio Codec
Format profile                           : LC
Codec ID                                 : 40
Duration                                 : 2h 49mn
Bit rate mode                            : Variable
Bit rate                                 : 61.2 Kbps
Maximum bit rate                         : 69.6 Kbps
Channel(s)                               : 2 channels
Channel positions                        : Front: L R
Sampling rate                            : 48.0 KHz
Compression mode                         : Lossy
Delay relative to video                  : 50ms
Stream size                              : 74.2 MiB (1%)
Encoded date                             : UTC 2015-11-02 13:16:11
Tagged date                              : UTC 2015-11-02 13:23:36

____________________________________THE END_____________________________________