Login or Register

NFO File

For Amnesia Fortnight 2014 Documentary The Pitches (BD 10-bit x264 480p AC3)

General
Unique ID                                : 240866287616438777649534984949136337782 (0xB53528DAFB339285AAD5428F9397AB76)
Complete name                            : Amnesia Fortnight 2014 Documentary The Pitches (BD 10-bit x264 480p AC3) [644EE629].mkv
Format                                   : Matroska
Format version                           : Version 4 / Version 2
File size                                : 196 MiB
Duration                                 : 33mn 47s
Overall bit rate                         : 811 Kbps
Encoded date                             : UTC 2015-11-18 13:58:25
Writing application                      : mkvmerge v8.5.2 ('Crosses') 64bit
Writing library                          : libebml v1.3.3 + libmatroska v1.4.4
DURATION                                 : 00:33:47.484000000
NUMBER_OF_FRAMES                         : 48611
NUMBER_OF_BYTES                          : 156533148
_STATISTICS_WRITING_APP                  : mkvmerge v8.5.2 ('Crosses') 64bit
_STATISTICS_WRITING_DATE_UTC             : 2015-11-18 13:58:25
_STATISTICS_TAGS                         : BPS DURATION NUMBER_OF_FRAMES NUMBER_OF_BYTES

Video
ID                                       : 1
Format                                   : AVC
Format/Info                              : Advanced Video Codec
Format profile                           : High [email protected]
Format settings, CABAC                   : Yes
Format settings, ReFrames                : 16 frames
Codec ID                                 : V_MPEG4/ISO/AVC
Duration                                 : 33mn 47s
Bit rate                                 : 603 Kbps
Width                                    : 856 pixels
Height                                   : 480 pixels
Display aspect ratio                     : 16:9
Frame rate mode                          : Constant
Frame rate                               : 23.976 fps
Color space                              : YUV
Chroma subsampling                       : 4:2:0
Bit depth                                : 10 bits
Scan type                                : Progressive
Bits/(Pixel*Frame)                       : 0.061
Stream size                              : 146 MiB (74%)
Writing library                          : x264 core 148 r2638 7599210
Encoding settings                        : cabac=1 / ref=16 / deblock=1:-1:-1 / analyse=0x3:0x133 / me=tesa / subme=11 / psy=1 / psy_rd=1.00:0.15 / mixed_ref=1 / me_range=24 / chroma_me=1 / trellis=2 / 8x8dct=1 / cqm=0 / deadzone=21,11 / fast_pskip=0 / chroma_qp_offset=-3 / threads=6 / lookahead_threads=1 / sliced_threads=0 / nr=0 / decimate=1 / interlaced=0 / bluray_compat=0 / constrained_intra=0 / bframes=16 / b_pyramid=2 / b_adapt=2 / b_bias=0 / direct=3 / weightb=1 / open_gop=0 / weightp=2 / keyint=240 / keyint_min=23 / scenecut=40 / intra_refresh=0 / rc_lookahead=60 / rc=crf / mbtree=1 / crf=16.0 / qcomp=0.60 / qpmin=10 / qpmax=81 / qpstep=4 / ip_ratio=1.40 / aq=2:0.60
Language                                 : English
Default                                  : No
Forced                                   : No

Audio
ID                                       : 2
Format                                   : AC-3
Format/Info                              : Audio Coding 3
Mode extension                           : CM (complete main)
Format settings, Endianness              : Big
Codec ID                                 : A_AC3
Duration                                 : 33mn 47s
Bit rate mode                            : Constant
Bit rate                                 : 192 Kbps
Channel(s)                               : 2 channels
Channel positions                        : Front: L R
Sampling rate                            : 48.0 KHz
Compression mode                         : Lossy
Stream size                              : 46.4 MiB (24%)
Language                                 : English
Default                                  : Yes
Forced                                   : No
DURATION                                 : 00:33:47.456000000
NUMBER_OF_FRAMES                         : 63358
NUMBER_OF_BYTES                          : 48658944
_STATISTICS_WRITING_APP                  : mkvmerge v8.5.2 ('Crosses') 64bit
_STATISTICS_WRITING_DATE_UTC             : 2015-11-18 13:58:25
_STATISTICS_TAGS                         : BPS DURATION NUMBER_OF_FRAMES NUMBER_OF_BYTES

Menu
00:00:00.000                             : en:Chapter 01
00:00:35.118                             : en:Chapter 02
00:01:08.943                             : en:Chapter 03
00:01:42.560                             : en:Chapter 04
00:02:14.217                             : en:Chapter 05
00:02:43.246                             : en:Chapter 06
00:03:11.983                             : en:Chapter 07
00:03:36.007                             : en:Chapter 08
00:04:10.792                             : en:Chapter 09
00:04:44.993                             : en:Chapter 10
00:05:19.652                             : en:Chapter 11
00:05:54.645                             : en:Chapter 12
00:06:27.804                             : en:Chapter 13
00:07:00.711                             : en:Chapter 14
00:07:33.786                             : en:Chapter 15
00:08:07.653                             : en:Chapter 16
00:08:45.316                             : en:Chapter 17
00:09:16.847                             : en:Chapter 18
00:09:49.213                             : en:Chapter 19
00:10:22.747                             : en:Chapter 20
00:10:57.114                             : en:Chapter 21
00:11:28.646                             : en:Chapter 22
00:12:00.761                             : en:Chapter 23
00:12:32.418                             : en:Chapter 24
00:13:05.785                             : en:Chapter 25
00:13:38.400                             : en:Chapter 26
00:14:11.684                             : en:Chapter 27
00:14:43.215                             : en:Chapter 28
00:15:16.999                             : en:Chapter 29
00:15:51.784                             : en:Chapter 30
00:17:53.197                             : en:Chapter 31
00:20:22.596                             : en:Chapter 32
00:27:42.494                             : en:Chapter 33