Login or Register

NFO File

For Beyond the Valley of the Dolls 1970 DVDrip Xvid-OlFa

Beyond the Valley of the Dolls 1970 DVDrip Xvid-OlFa

Genre: Comedy, Music  |  17 June 1970 (USA)
IMDB: http://www.imdb.com/title/tt0065466/
Ratings: 6.2/10 from 7,253 users  

Three girls come to Hollywood to make it big, but find only sex, drugs and sleaze.

Director: Russ Meyer
Writers: Roger Ebert (screenplay), Roger Ebert (story), 1 more credit ╗
Stars: Dolly Read, Cynthia Myers, Marcia McBroom

Video: 720x304 Xvid
Audio: English MP3
Subs: English HI in .srt. 
	Dutch, English, French, Spanish, Swedish in .idx/.sub files

source: PAL DVD
Format                                   : AVI
Format/Info                              : Audio Video Interleave
File size                                : 1.30 GiB
Duration                                 : 1h 44mn
Overall bit rate                         : 1 771 Kbps
Writing application                      : VirtualDubMod 1.5.4.1 (build 2178/release)
Writing library                          : VirtualDubMod build 2178/release

Video
ID                                       : 0
Format                                   : MPEG-4 Visual
Format profile                           : [email protected]
Format settings, BVOP                    : No
Format settings, QPel                    : No
Format settings, GMC                     : No warppoints
Format settings, Matrix                  : Default (H.263)
Codec ID                                 : XVID
Codec ID/Hint                            : XviD
Duration                                 : 1h 44mn
Bit rate                                 : 1 636 Kbps
Width                                    : 720 pixels
Height                                   : 304 pixels
Display aspect ratio                     : 2.35:1
Frame rate                               : 25.000 fps
Color space                              : YUV
Chroma subsampling                       : 4:2:0
Bit depth                                : 8 bits
Scan type                                : Progressive
Compression mode                         : Lossy
Bits/(Pixel*Frame)                       : 0.299
Stream size                              : 1.20 GiB (92%)
Writing library                          : XviD 1.2.1 (UTC 2008-12-04)

Audio
ID                                       : 1
Format                                   : MPEG Audio
Format version                           : Version 1
Format profile                           : Layer 3
Mode                                     : Joint stereo
Mode extension                           : MS Stereo
Codec ID                                 : 55
Codec ID/Hint                            : MP3
Duration                                 : 1h 44mn
Bit rate mode                            : Constant
Bit rate                                 : 128 Kbps
Channel(s)                               : 2 channels
Sampling rate                            : 48.0 KHz
Compression mode                         : Lossy
Stream size                              : 95.8 MiB (7%)
Alignment                                : Aligned on interleaves
Interleave, duration                     : 80 ms (2.00 video frames)
Interleave, preload duration             : 504 ms
Writing library                          : LAME3.98.2