Login or Register

NFO File

For Spectre.2015.REAL.HD-TS.XVID.AC3.HQ.Hive-CM8

[center][img]http://img905.imageshack.us/img905/5742/sWKFLy.jpg[/img]

 
[color=blue][size=4][b]Spectre.2015.REAL.HD-TS.XVID.AC3.HQ.Hive-CM8[/b][/size][/color]

Thx Hive

CM8 Doing It Right The First Time 

Sources:

Video: Unmarked 720p Mandarin Telecine
Audio: Sweet Line Big Thx to S4NDM4N 

Notes:

may be last on this one, but i only do quality stuff, and i dont sell you mic as line audio
Encoded 1 week for you guys, a lot of time went into this
tried playing with latino vid for 2 days, too dark, deleted
tried playing with russian vid for 2 days, not good enough,deleted
tried playing with 4 different mandarin Telecine with all kind of different watermarkings to merge to one good, were jerky deleted

finally got the good one, no kind of watermarkings, no floating one no constant ones, simply great

Encode:

video needed fixing brightness,contrast and a lot of fixing colours
found a very nice way, looks awesome now, pretty similar to my iron man 3 release

since the mandarin telecine came with mic audio and cpl groups sold it as line eventhough it clearly isnt i asked S4NDM4N to get me a real line
for this awesome release which we got so now all is perfect together
audio is lipsynced to my video

hardcoded original english subs for foreign parts only too, while i was at it-seen at last pic below

this will do me till retail, not even a web-dl is needed in this case
enjoy

Video: 720x352 @bitrate 3000-8000
Audio: English Line Stereo 2.0
Sample: yes 2 included voice and action scene


PS:
guys cpl screeners are out you know where to find me
"the walk" "99 homes" are hottest so far, but am taking any other too


http://www.imdb.com/title/tt2379713/



General
Format                         : AVI
Format/Info                    : Audio Video Interleave
Format profile                 : OpenDML
Format settings                : rec
File size                      : 2.14 GiB
Duration                       : 2h 28mn
Overall bit rate               : 2 061 Kbps
Writing application            : AVI-Mux GUI 1.17.7, Aug  8 2006  20:59:17

Video
ID                             : 0
Format                         : MPEG-4 Visual
Format profile                 : Advanced [email protected]
Format settings, BVOP          : 2
Format settings, QPel          : Yes
Format settings, GMC           : No warppoints
Format settings, Matrix        : Default (H.263)
Muxing mode                    : Packed bitstream
Codec ID                       : XVID
Codec ID/Hint                  : XviD
Duration                       : 2h 28mn
Bit rate                       : 1 799 Kbps
Width                          : 720 pixels
Height                         : 352 pixels
Display aspect ratio           : 2.045
Frame rate                     : 23.976 fps
Color space                    : YUV
Chroma subsampling             : 4:2:0
Bit depth                      : 8 bits
Scan type                      : Progressive
Compression mode               : Lossy
Bits/(Pixel*Frame)             : 0.296
Stream size                    : 1.87 GiB (87%)
Writing library                : XviD 1.2.1 (UTC 2008-12-04)

Audio
ID                             : 1
Format                         : AC-3
Format/Info                    : Audio Coding 3
Mode extension                 : CM (complete main)
Format settings, Endianness    : Big
Codec ID                       : 2000
Duration                       : 2h 28mn
Bit rate mode                  : Constant
Bit rate                       : 256 Kbps
Channel(s)                     : 2 channels
Channel positions              : Front: L R
Sampling rate                  : 48.0 KHz
Bit depth                      : 16 bits
Compression mode               : Lossy
Stream size                    : 272 MiB (12%)
Alignment                      : Aligned on interleaves
Interleave, duration           : 64 ms (1.53 video frames)
Interleave, preload duration   : 192 ms



Screens 

[img]http://img911.imageshack.us/img911/4900/Vki4da.png[/img]
[img]http://img910.imageshack.us/img910/5426/eQ1oFY.png[/img]
[img]http://img910.imageshack.us/img910/6199/Y7xIsH.png[/img]
[img]http://img910.imageshack.us/img910/5283/qMiedX.png[/img]
[img]http://img911.imageshack.us/img911/2390/3I3EzI.png[/img]
[img]http://img908.imageshack.us/img908/690/mac75J.png[/img]
[img]http://img907.imageshack.us/img907/7066/4Yj5I0.png[/img]

SubPic:
[img]http://img905.imageshack.us/img905/232/sYKOwA.png[/img]





Plot

A cryptic message from Bond's past sends him on a trail to uncover a sinister organization. 
While M battles political forces to keep the secret service alive, 
Bond peels back the layers of deceit to reveal the terrible truth behind SPECTRE.

Cast

Daniel Craig 	 ... 	James Bond
Christoph Waltz  ... 	Blofeld
LΘa Seydoux 	 ... 	Madeleine Swann
Ralph Fiennes 	 ... 	M
Monica Bellucci  ... 	Lucia Sciarra 


[video=https://www.youtube.com/watch?v=7GqClqvlObY]



Greetz

SugarB,iNCOMiNG,Izzy,MenaceIISociety,jiinx,SiMPLE,CherryBomb,bigguy79
ranbailey,ViSiON,UnKnOwN,YanKeeS,COPYxRIGHT,THC,VAiN,ACAB,DRs
LKRG,Kingstoner,SiMPLE,TiTAN,cadance,PLAYNOW
Unevano,BigVik,Rapeseed,SAFC,goldadvance,KaN1vE,Pinnz,Wayne,HiGH
SeeN,jtr,Limey,ICONiK,TED,rkofan,mrtoke09
Mr Hive

a special hi to my retarded friend flamingturd 
oh and toplapbiz i guess there will be real line lol
oh and btw greetz are for people you respect not people you brown nose
ok wasnt going to do it but got passed vobs from a friend 
with all the people asking me 
the phone calls the random people in the street figured i might as well do it 
i mean considering what is out 



LOOKING FOR ANYTHING YOU WANT TO LOOK AND SOUND BETTER

COME FIND US WE DONT BITE 
[email protected][/center]