Login or Register

NFO File

For Criminal.Activities.2015.720p.WEB-DL.DD5.1.H264-RARBG

http://www.imdb.com/title/tt3687310/

General           : Criminal.Activities.2015.720p.WEB-DL.DD5.1.H264-RARBG.mkv

Format            : Matroska at 4 374 Kbps
Length            : 2.87 GiB for 1h 33mn 54s 528ms

Video #0          : AVC at 3 903 Kbps
Aspect            : 1280 x 530 (2.415) at 23.976 fps

Audio #0          : AC-3 at 384 Kbps
Infos             : 6 channels, 48.0 KHz

Language          : English
Subtitles         : English (muxed in & optional)
                    English (srt file)

[URL=http://imagecurl.com/viewer.php?file=15626404552725392611.png][IMG]http://imagecurl.com/images/15626404552725392611_thumb.png[/IMG][/URL]
[URL=http://imagecurl.com/viewer.php?file=48345359306218040040.png][IMG]http://imagecurl.com/images/48345359306218040040_thumb.png[/IMG][/URL]
[URL=http://imagecurl.com/viewer.php?file=77601095812189808512.png][IMG]http://imagecurl.com/images/77601095812189808512_thumb.png[/IMG][/URL]
[URL=http://imagecurl.com/viewer.php?file=70771414392025672439.png][IMG]http://imagecurl.com/images/70771414392025672439_thumb.png[/IMG][/URL]
[URL=http://imagecurl.com/viewer.php?file=08976010772960013171.png][IMG]http://imagecurl.com/images/08976010772960013171_thumb.png[/IMG][/URL]
[URL=http://imagecurl.com/viewer.php?file=07169788952721451778.png][IMG]http://imagecurl.com/images/07169788952721451778_thumb.png[/IMG][/URL]



[mediainfo]
Video
ID                                       : 1
Format                                   : AVC
Format/Info                              : Advanced Video Codec
Format profile                           : [email protected]
Format settings, CABAC                   : No
Format settings, ReFrames                : 2 frames
Codec ID                                 : V_MPEG4/ISO/AVC
Duration                                 : 1h 33mn
Bit rate                                 : 3 903 Kbps
Width                                    : 1 280 pixels
Height                                   : 530 pixels
Display aspect ratio                     : 2.40:1
Frame rate mode                          : Constant
Frame rate                               : 23.976 fps
Color space                              : YUV
Chroma subsampling                       : 4:2:0
Bit depth                                : 8 bits
Scan type                                : Progressive
Bits/(Pixel*Frame)                       : 0.240
Stream size                              : 2.56 GiB (89%)
Title                                    : Criminal.Activities.2015.720p.WEB-DL.DD5.1.H264-RARBG
Language                                 : English
Default                                  : Yes
Forced                                   : No
Color range                              : Limited
Color primaries                          : BT.709
Transfer characteristics                 : BT.709
Matrix coefficients                      : BT.709

Audio
ID                                       : 2
Format                                   : AC-3
Format/Info                              : Audio Coding 3
Mode extension                           : CM (complete main)
Format settings, Endianness              : Big
Codec ID                                 : A_AC3
Duration                                 : 1h 33mn
Bit rate mode                            : Constant
Bit rate                                 : 384 Kbps
Channel(s)                               : 6 channels
Channel positions                        : Front: L C R, Side: L R, LFE
Sampling rate                            : 48.0 KHz
Compression mode                         : Lossy
Stream size                              : 258 MiB (9%)
Title                                    : Criminal.Activities.2015.720p.WEB-DL.DD5.1.H264-RARBG
Language                                 : English
Default                                  : Yes
Forced                                   : No

Text
ID                                       : 3
Format                                   : UTF-8
Codec ID                                 : S_TEXT/UTF8
Codec ID/Info                            : UTF-8 Plain Text
Language                                 : English
Default                                  : No
Forced                                   : No

Menu
00:00:00.000                             : en:1
00:10:20.000                             : en:2
00:20:31.000                             : en:3
00:32:00.000                             : en:4
00:39:07.000                             : en:5
00:49:22.000                             : en:6
00:59:23.000                             : en:7
01:12:09.000                             : en:8
01:20:03.000                             : en:9
01:29:46.000                             : en:10



[/mediainfo]