Login or Register

NFO File

For Masaan.2015.MULTi.HDrip.x264-Les.Bidochons

24/11/2015

================================================================================
*                        Fichiers contenus dans le post                        *
================================================================================
Masaan.2015.MULTi.HDrip.x264-Les Bidochons.mkv                          01:40:11
================================================================================
*Duree totale du post .........: 01:40:11                                      *
*Taille totale du post ........: 1.52 Go                                       *
================================================================================

================================================================================
*                Masaan.2015.MULTi.HDrip.x264-Les Bidochons.mkv                *
================================================================================
*Format                        : Matroska                                      *
*Format version                : Version 2                                     *
*File size                     : 1.52 GiB                                      *
*Duration                      : 1h 40mn                                       *
*Overall bit rate              : 2 173 Kbps                                    *
*Movie name                    : Masaan.2015.MULTi.HDrip.x264-Les Bidochons.mkv*
*Writing application           : HandBrake 0.10.1 2015040400                   *
*Writing library               : Lavf55.12.0                                   *
*=================================== Video ====================================*
*ID                            : 1                                             *
*Format                        : AVC                                           *
*Format/Info                   : Advanced Video Codec                          *
*Format profile                : [email protected]                                     *
*Format settings, CABAC        : Yes                                           *
*Format settings, ReFrames     : 16 frames                                     *
*Codec ID                      : V_MPEG4/ISO/AVC                               *
*Duration                      : 1h 40mn                                       *
*Bit rate                      : 1 400 Kbps                                    *
*Width                         : 928 pixels                                    *
*Height                        : 500 pixels                                    *
*Display aspect ratio          : 1.85:1                                        *
*Original display aspect ratio : 1.85:1                                        *
*Frame rate mode               : Variable                                      *
*Frame rate                    : 25.000 fps                                    *
*Color space                   : YUV                                           *
*Chroma subsampling            : 4:2:0                                         *
*Bit depth                     : 8 bits                                        *
*Scan type                     : Progressive                                   *
*Bits/(Pixel*Frame)            : 0.121                                         *
*Stream size                   : 976 MiB (63%)                                 *
*Writing library               : x264 core 146                                 *
*Default                       : Yes                                           *
*Forced                        : No                                            *
*Color primaries               : BT.709-5, BT.1361, IEC 61966-2-4, SMPTE RP177 *
*Transfer characteristics      : BT.709-5, BT.1361                             *
*Matrix coefficients           : BT.709-5, BT.1361, IEC 61966-2-4 709, SMPTE RP*
*================================== Audio #1 ==================================*
*ID                            : 2                                             *
*Format                        : AC-3                                          *
*Format/Info                   : Audio Coding 3                                *
*Mode extension                : CM (complete main)                            *
*Format settings, Endianness   : Big                                           *
*Codec ID                      : A_AC3                                         *
*Duration                      : 1h 40mn                                       *
*Bit rate mode                 : Constant                                      *
*Bit rate                      : 384 Kbps                                      *
*Channel(s)                    : 6 channels                                    *
*Channel positions             : Front: L C R, Side: L R, LFE                  *
*Sampling rate                 : 48.0 KHz                                      *
*Bit depth                     : 16 bits                                       *
*Compression mode              : Lossy                                         *
*Stream size                   : 275 MiB (18%)                                 *
*Title                         : Surround                                      *
*Language                      : French                                        *
*Default                       : Yes                                           *
*Forced                        : No                                            *
*================================== Audio #2 ==================================*
*ID                            : 3                                             *
*Format                        : AC-3                                          *
*Format/Info                   : Audio Coding 3                                *
*Mode extension                : CM (complete main)                            *
*Format settings, Endianness   : Big                                           *
*Codec ID                      : A_AC3                                         *
*Duration                      : 1h 40mn                                       *
*Bit rate mode                 : Constant                                      *
*Bit rate                      : 384 Kbps                                      *
*Channel(s)                    : 6 channels                                    *
*Channel positions             : Front: L C R, Side: L R, LFE                  *
*Sampling rate                 : 48.0 KHz                                      *
*Bit depth                     : 16 bits                                       *
*Compression mode              : Lossy                                         *
*Stream size                   : 275 MiB (18%)                                 *
*Title                         : Surround                                      *
*Language                      : Hindi                                         *
*Default                       : No                                            *
*Forced                        : No                                            *
*================================== Texte #1 ==================================*
*ID                            : 4                                             *
*Format                        : ASS                                           *
*Codec ID                      : S_TEXT/ASS                                    *
*Codec ID/Info                 : Advanced Sub Station Alpha                    *
*Compression mode              : Lossless                                      *
*Language                      : French                                        *
*Default                       : No                                            *
*Forced                        : No                                            *

================================================================================
*                           INFORMATION SUR LE POST                            *
================================================================================
*Taille des donnees sans par2..: 1.52 Go                                       *
*Nombre de rar.................: 28                                            *
*Taille des rar................: 57.50 Mo                                      *
*Par2..........................: 8%                                            *
*Nombre de bloc de recuperation: 341                                           *
*Taille d'un bloc..............: 375.00 Ko                                     *