Login or Register

NFO File

For The Yearling 1946 Dvdrip Xvid-Olfa

The Yearling 1946 Dvdrip Xvid-Olfa

Genre: Drama, Family  |  May 1947 (USA)
IMDB: http://www.imdb.com/title/tt0039111/
Ratings: 7.3/10 from 4,086 users  

Plot: A boy persuades his parents to allow him to adopt a young deer, 
but what will happen if the deer misbehaves?

Director: Clarence Brown
Writers: Paul Osborn (screen play), Marjorie Kinnan Rawlings (novel by), 1 more credit ╗
Stars: Gregory Peck, Jane Wyman, Claude Jarman Jr.

Video: 720x544 Xvid
Audio: English MP3
Subs: English CC/HI in .srt file. English, French, Spanish in .idx/.sub

Format                                   : AVI
Format/Info                              : Audio Video Interleave
File size                                : 1.37 GiB
Duration                                 : 2h 8mn
Overall bit rate                         : 1 528 Kbps
Writing application                      : VirtualDubMod 1.5.4.1 (build 2178/release)
Writing library                          : VirtualDubMod build 2178/release

Video
ID                                       : 0
Format                                   : MPEG-4 Visual
Format profile                           : Advanced [email protected]
Format settings, BVOP                    : 1
Format settings, QPel                    : No
Format settings, GMC                     : No warppoints
Format settings, Matrix                  : Default (H.263)
Muxing mode                              : Packed bitstream
Codec ID                                 : XVID
Codec ID/Hint                            : XviD
Duration                                 : 2h 8mn
Bit rate                                 : 1 393 Kbps
Width                                    : 720 pixels
Height                                   : 544 pixels
Display aspect ratio                     : 4:3
Frame rate                               : 23.976 fps
Color space                              : YUV
Chroma subsampling                       : 4:2:0
Bit depth                                : 8 bits
Scan type                                : Progressive
Compression mode                         : Lossy
Bits/(Pixel*Frame)                       : 0.148
Stream size                              : 1.25 GiB (91%)
Writing library                          : XviD 1.2.1 (UTC 2008-12-04)

Audio
ID                                       : 1
Format                                   : MPEG Audio
Format version                           : Version 1
Format profile                           : Layer 3
Mode                                     : Joint stereo
Mode extension                           : MS Stereo
Codec ID                                 : 55
Codec ID/Hint                            : MP3
Duration                                 : 2h 8mn
Bit rate mode                            : Constant
Bit rate                                 : 128 Kbps
Channel(s)                               : 2 channels
Sampling rate                            : 48.0 KHz
Compression mode                         : Lossy
Stream size                              : 117 MiB (8%)
Alignment                                : Aligned on interleaves
Interleave, duration                     : 83 ms (2.00 video frames)
Interleave, preload duration             : 504 ms
Writing library                          : LAME3.98.2